Ghost Rider; Spirit Of Vengeance 2011 BRRip H264 AC3

Filed under: Movies by: admin on June 4th 2012

Ghost Rider; Spirit Of Vengeance 2011 BRRip H264 AC3

Ghost Rider; Spirit Of Vengeance 2011 BRRip H264 AC3

http://www.imdb.com/title/tt1071875/
http://www.netload.in/dateiJKPyxi0FSY/Ghost Rider; Spirit Of Vengeance 2011 BRRip H264 AC3 2CH - UNiQUE.mkv.htm
http://www.netload.in/dateidZOaux8JNJ/Ghost Rider; Spirit Of Vengeance 2011 BRRip H264 AC3 6CH - UNiQUE.mkv.htm

6CH release:

General
Complete name : Ghost Rider; Spirit Of Vengeance 2011 BRRip H264 AC3 6CH - UNiQUE.mkv
Format : Matroska
Format version : Version 2
File size : 1.03 GiB
Duration : 1h 35mn
Overall bit rate : 1 547 Kbps
Encoded date : UTC 2012-05-25 12:15:55
Writing application : mkvmerge v5.2.1 'A Far Off Place' built on Jan 2 2012 23:21:10
Writing library : libebml v1.2.3 libmatroska v1.3.0

ID : 1
Format : AVC
Format/Info : Advanced Video Codec
Format profile : HighL3.0
Format settings, CABAC : Yes
Format settings, ReFrames : 6 frames
Muxing mode : Header stripping
Codec ID : VMPEG4/ISO/AVC
Duration : 1h 35mn
Bit rate : 1 099 Kbps
Width : 720 pixels
Height : 304 pixels
Display aspect ratio : 2.35:1
Frame rate : 23.976 fps
Color space : YUV
Chroma subsampling : 4:2:0
Bit depth : 8 bits
Scan type : Progressive
Bits/Pixel*Frame : 0.209
Stream size : 730 MiB 69
Writing library : x264 core 120 r2164 da19765
Encoder : Kareemzos
Source : 720p SPARKS - cheers
Default : Yes
Forced : No
Color primaries : BT.709-5, BT.1361, IEC 61966-2-4, SMPTE RP177
Transfer characteristics : BT.709-5, BT.1361
Matrix coefficients : BT.709-5, BT.1361, IEC 61966-2-4 709, SMPTE RP177

ID : 2
Format : AC-3
Format/Info : Audio Coding 3
Mode extension : CM complete main
Muxing mode : Header stripping
Codec ID : AAC3
Duration : 1h 35mn
Bit rate mode : Constant
Bit rate : 448 Kbps
Channels : 6 channels
Channel positions : Front: L C R, Side: L R, LFE
Sampling rate : 48.0 KHz
Bit depth : 16 bits
Compression mode : Lossy
Stream size : 306 MiB 29
Default : Yes
Forced : No
Encoder : Kareemzos
Source : 720p SPARKS - cheers

2CH release:
Complete name : Ghost Rider; Spirit Of Vengeance 2011 BRRip H264 AC3 2CH - UNiQUE.mkv
Format : Matroska
Format version : Version 2
File size : 838 MiB
Duration : 1h 35mn
Overall bit rate : 1 227 Kbps
Encoded date : UTC 2012-05-25 13:32:34
Writing application : mkvmerge v5.2.1 'A Far Off Place' built on Jan 2 2012 23:21:10
Writing library : libebml v1.2.3 libmatroska v1.3.0

ID : 1
Format : AVC
Format/Info : Advanced Video Codec
Format profile : HighL3.0
Format settings, CABAC : Yes
Format settings, ReFrames : 6 frames
Muxing mode : Header stripping
Codec ID : VMPEG4/ISO/AVC
Duration : 1h 35mn
Bit rate : 1 099 Kbps
Width : 720 pixels
Height : 304 pixels
Display aspect ratio : 2.35:1
Frame rate : 23.976 fps
Color space : YUV
Chroma subsampling : 4:2:0
Bit depth : 8 bits
Scan type : Progressive
Bits/Pixel*Frame : 0.209
Stream size : 734 MiB 88
Writing library : x264 core 120 r2164 da19765
Default : Yes
Forced : No
Color primaries : BT.709-5, BT.1361, IEC 61966-2-4, SMPTE RP177
Transfer characteristics : BT.709-5, BT.1361
Matrix coefficients : BT.709-5, BT.1361, IEC 61966-2-4 709, SMPTE RP177
Encoder : Kareemzos
Source : 720p SPARKS - cheers

ID : 2
Format : AC-3
Format/Info : Audio Coding 3
Mode extension : CM complete main
Muxing mode : Header stripping
Codec ID : AAC3
Duration : 1h 35mn
Bit rate mode : Constant
Bit rate : 128 Kbps
Channels : 2 channels
Channel positions : Front: L R
Sampling rate : 48.0 KHz
Bit depth : 16 bits
Compression mode : Lossy
Stream size : 87.5 MiB 10
Default : Yes
Forced : No
Encoder : Kareemzos
Source : 720p SPARKS - cheers

Storyline

As Johnny Blaze hides out in Eastern Europe, he is called upon to stop the devil, who is trying to take human form.

iMDB: http://www.imdb.com/title/tt1071875/
Download Ghost Rider; Spirit Of Vengeance 2011 BRRip H264 AC3 full rapidshare

Featured to Ghost Rider; Spirit Of Vengeance 2011 BRRip H264 AC3 Rapidshare Full Download

  • Ghost Rider Spirit of Vengeance (2011) 720p BrRip x264 Ghost Rider Spirit of Vengeance (2011) 720p BrRip x264 YIFY 649.90MB Ghost Rider Spirit of Vengeance (2011) 720p BrRip x264 YIFY Genre: Action, Fantasy http://www.imdb.com/title/tt1071875 Size: 649.90MB Quality: 720p Resolution: 1280*536 Frame Rate: 23.976 fps Language: English Subtitles: English Run Time: 1hr 35 min IMDB Rating: 4.5/10 http://www.imagebam.com/image/68fbf3212744954 http://rapidgator.net/file/73839636/tt1071875YIFY.part1.rar.html
    Read more about Ghost Rider Spirit of Vengeance (2011) 720p BrRip x264
  • Ghost Rider: Spirit of Vengeance (2011) BDRip XviD - Ghost Rider: Spirit of Vengeance (2011) Language: English | Subtitle: Romanian 01:35:31 | 608x256 pixels | XviD | 23.98 fps | MP3 - 128 kbps | 48 KHz | 693 MB http://www.imdb.com/title/tt1071875 Release Date: 17 February 2012 IMDB Rating: 4.7/10 from 20,963 I.M.D.b users Director(s): Mark Neveldine, Brian Taylor Writer(s): Scott M. Gimple, Seth Hoffman Star(s): Nicolas Cage, Ciaran Hinds, Idris Elba Genre(s): Action | Fantasy | Thriller Storyline
    Read more about Ghost Rider: Spirit of Vengeance (2011) BDRip XviD -
  • Ghost Rider Sririt Of Vengeance Read Nfo CAM GHOST RIDER SRIRIT OF VENGEANCE READ NFO CAM XVID-INSPiRAL Nicolas Cage reprises his role as Johnny Blaze in Ghost Rider Spirit of Vengeance. In this gritty new vision for the character, directed by Neveldine/Taylor (Crank), Johnny is still struggling with his curse as the devils bounty hunter but he may risk everything as he teams up with the leader of a group of rebel monks (Idris Elba) to save a young boy from the devil and possibly rid himself
    Read more about Ghost Rider Sririt Of Vengeance Read Nfo CAM
  • Ghost Rider (2007) (Extended Cut) BDRip Ghost Rider (2007) (Extended Cut) When the motorcyclist Johnny Blaze finds that his father Barton Blaze has a terminal cancer, he accepts a pact with the Mephistopheles, giving his soul for the health of his beloved father. But the devil deceives him, and Barton dies in a motorcycle accident during an exhibition. Johnny leaves the carnival, his town, his friends and his girlfriend Roxanne. Years later Johnny Blaze becomes a famous motorcyclist, who
    Read more about Ghost Rider (2007) (Extended Cut) BDRip
  • The Descendants (2011) 720p BRRip H264 AAC-GreatMagician The Descendants (2011) 720p BRRip H264 AAC-GreatMagician (Kingdom-Release) Language: English 115 Min | 1280 x 532 | H264 - 2 008 Kbps | 23.976fps | ACC - 352.8Kbps | 1.91 GiB Genre: Comedy | Drama A land baron tries to re-connect with his two daughters after his wife suffers a boating accident. http://extabit.com/file/27a5hkvewu7u0/The.Descendants.2011.720p.BRRip.H264.AAC-GreatMagician.Kingdom-Release.part1.rar http://extabit.com/file/27a5hkvewu7zc/The
    Read more about The Descendants (2011) 720p BRRip H264 AAC-GreatMagician
  • GhostCam: Spirit Photography Pro 1.0.5 Android GhostCam: Spirit Photography Pro 1.0.5 Android Overview: Ad-Free Version Of GhostCam: Spirit Photography. Requires: Android 2.1 Change Log: New ghosts added New feature: Edit picture in mobile gallery to add a ghost to the picture Added Built-in saved pictures gallery--now you can view your saved ghost picture Added Built-in file explorer (fixed from last submit version 1.0.3 when touch on Open saved file directory menu) Add Ghost Opacity Setting
    Read more about GhostCam: Spirit Photography Pro 1.0.5 Android

Tags: rate, mode, brrip, vengeance, spirit, vampires brrip h264

0 comments to “Ghost Rider; Spirit Of Vengeance 2011 BRRip H264 AC3”

Leave a Reply